[Login] or [Signup]
Login
Username:
Password:
[Signup]
[Recover Account]


Poll


You must be logged in to view polls



Torrent Details For "Loophole.1981.1080p.BluRay.REMUX.AVC.DTS-HD.MA.2.0-FGT"

Loophole.1981.1080p.BluRay.REMUX.AVC.DTS-HD.MA.2.0-FGT

Download this torrent | Magnet Download
Health:
Seeds: 0
Leechers: 4
Completed:
Last Checked: 13-12-2018 19:16:43
External Torrent
Update Stats
Download Magnet


Poster


iMDB
Imdb Picture Title: Loophole
Year: 1981
Runtime: 105 minutes
Votes: 314
Rating: 5.9/10
Language: English
Country: UK
All Genres: Adventure, Crime, Drama, Thriller
Plot Outline: When architect Stephen Booker loses his partnership, he finds jobs hard to come by, and with money in short supply, he unwittingly becomes involved in a daring scheme to rob one of London's biggest bank vaults.
Director: John Quested
Writing By: Jonathan Hales,Robert Pollock,
Produced By: Julian Holloway,David Korda,Edward Simons,George Walker,
Music: Lalo Schifrin
Plot:

When architect Stephen Booker loses his partnership, he finds jobs hard to come by, and with money in short supply, he unwittingly becomes involved in a daring scheme to rob one of London's biggest bank vaults.

- Written by <[email protected]>
Cast:
Albert Finney as Mike Daniels
Martin Sheen as Stephen Booker
Susannah York as Dinah Booker
Colin Blakely as Gardner
Jonathan Pryce as Taylor
Robert Morley as Godfrey
Alfred Lynch as Harry
Tony Doyle as Nolan
Christopher Guard as Cliff
Gwyneth Powell as Doreen


Watch-Free-HD     Download

Details
Name:Loophole.1981.1080p.BluRay.REMUX.AVC.DTS-HD.MA.2.0-FGT
Description:
MediaInfo

Video
ID                                       : 1
Format                                   : AVC
Format/Info                              : Advanced Video Codec
Format profile                           : [email protected]
Format settings, CABAC                   : Yes
Format settings, ReFrames                : 4 frames
Codec ID                                 : V_MPEG4/ISO/AVC
Duration                                 : 1h 43mn
Bit rate mode                            : Variable
Maximum bit rate                         : 35.0 Mbps
Width                                    : 1 920 pixels
Height                                   : 1 080 pixels
Display aspect ratio                     : 16:9
Frame rate mode                          : Constant
Frame rate                               : 23.976 (24000/1001) fps
Standard                                 : NTSC
Color space                              : YUV
Chroma subsampling                       : 4:2:0
Bit depth                                : 8 bits
Scan type                                : Progressive
Title                                    : Loophole.1981.1080p.BluRay.REMUX.AVC.DTS-HD.MA.2.0-FGT
Language                                 : English
Default                                  : No
Forced                                   : No
Color range                              : Limited
Color primaries                          : BT.709
Transfer characteristics                 : BT.709
Matrix coefficients                      : BT.709

Audio #1
ID                                       : 2
Format                                   : DTS
Format/Info                              : Digital Theater Systems
Format profile                           : MA / Core
Mode                                     : 16
Format settings, Endianness              : Big
Codec ID                                 : A_DTS
Duration                                 : 1h 43mn
Bit rate mode                            : Variable / Constant
Bit rate                                 : Unknown / 1 509 Kbps
Channel(s)                               : 2 channels
Channel positions                        : Front: L R
Sampling rate                            : 48.0 KHz
Frame rate                               : 93.750 fps (512 spf)
Bit depth                                : 16 bits
Compression mode                         : Lossless / Lossy
Title                                    : Loophole.1981.1080p.BluRay.REMUX.AVC.DTS-HD.MA.2.0-FGT
Language                                 : English
Default                                  : Yes
Forced                                   : No

Audio #2
ID                                       : 3
Format                                   : DTS
Format/Info                              : Digital Theater Systems
Mode                                     : 16
Format settings, Endianness              : Big
Codec ID                                 : A_DTS
Duration                                 : 1h 43mn
Bit rate mode                            : Constant
Bit rate                                 : 1 509 Kbps
Channel(s)                               : 2 channels
Channel positions                        : Front: L R
Sampling rate                            : 48.0 KHz
Frame rate                               : 93.750 fps (512 spf)
Bit depth                                : 16 bits
Compression mode                         : Lossy
Stream size                              : 1.09 GiB (6%)
Title                                    : Loophole.1981.1080p.BluRay.REMUX.AVC.DTS-HD.MA.2.0-FGT
Language                                 : English
Default                                  : No
Forced                                   : No

Audio #3
ID                                       : 4
Format                                   : AC-3
Format/Info                              : Audio Coding 3
Mode extension                           : CM (complete main)
Format settings, Endianness              : Big
Codec ID                                 : A_AC3
Duration                                 : 1h 43mn
Bit rate mode                            : Constant
Bit rate                                 : 256 Kbps
Channel(s)                               : 2 channels
Channel positions                        : Front: L R
Sampling rate                            : 48.0 KHz
Frame rate                               : 31.250 fps (1536 spf)
Compression mode                         : Lossy
Stream size                              : 190 MiB (1%)
Title                                    : Loophole.1981.1080p.BluRay.REMUX.AVC.DTS-HD.MA.2.0-FGT
Language                                 : English
Default                                  : No
Forced                                   : No

Text
ID                                       : 5
Format                                   : PGS
Muxing mode                              : zlib
Codec ID                                 : S_HDMV/PGS
Codec ID/Info                            : Picture based subtitle format used on BDs/HD-DVDs
Title                                    : English-PGS
Language                                 : English
Default                                  : Yes
Forced                                   : No

Menu
00:00:00.000                             : en:Chapter 00
00:12:21.323                             : en:Chapter 01
00:23:45.799                             : en:Chapter 02
00:37:44.262                             : en:Chapter 03
00:52:31.690                             : en:Chapter 04
01:05:03.691                             : en:Chapter 05
01:18:56.231                             : en:Chapter 06
01:31:23.394                             : en:Chapter 07



 
 
 
 
 
 
Category:Movies > Remux
Lang:English  English
Total Size:18.37 GB
Info Hash:616ddb88102a0e95899cd20b5ec47abd2e73bd9d
Added By:Unknown
Date Added:03-05-2017 19:49:48
Views:339
Hits:60

Download Torrent

Ratings:Not Yet Rated (Log in to rate it)


Tracker:
http://tracker.trackerfix.com:80/announce


File List: 


Comments

No comments still posted

Powered by 10 Hamsters v2-svn -|- Page Generated In 0.014108 secs.
-|- RSS FEED
Theme By: Nikkbu