[Login] or [Signup]
Login
Username:
Password:
[Signup]
[Recover Account]


Poll


You must be logged in to view polls



Torrent Details For "Tangled Ever After 2012 1080p Esub BDRIP Dual Audio English Hindi GOPISAHI"

Tangled Ever After 2012 1080p Esub BDRIP Dual Audio English Hindi GOPISAHI

Download this torrent | Magnet Download
Health:
Seeds: 0
Leechers: 2
Completed: 509 
Last Checked: 07-11-2018 08:58:04
External Torrent
Update Stats
Download Magnet


Poster


iMDB
Imdb Picture Title: Tangled Ever After
Year: 2012
Runtime: 6 minutes
Votes: 13799
Rating: 7.7/10
Language: English
Country: USA
All Genres: Animation, Short, Action, Comedy, Family
Plot Outline: Rapunzel and Flynn Rider have their wedding, but Pascal and Maximus must recover the rings they lose in mid-ceremony.
Director: Nathan Greno
Byron Howard
Writing By: Nathan Greno,Byron Howard,Mark Kennedy,Robert L. Baird,Daniel Gerson,
Produced By: John Lasseter,Aimee Scribner,
Music: Kevin Kliesch
Cast:
Mandy Moore as Rapunzel
Zachary Levi as Flynn Rider
Alan Dale as Priest
Paul F. Tompkins as Short Thug
Kari Wahlgren as Queen
Mark Allan Stewart as Dove Caller
Byron Howard as Lantern Wrangler / Chef
Nathan Greno as Guard / Maximus / Stabbington Brothers
Sophia I. Aguirre as Additional Voices
Robert Bagnell as Additional Voices


Watch-Free-HD     Download

Details
Name:Tangled Ever After 2012 1080p Esub BDRIP Dual Audio English Hindi GOPISAHI
Description:

General
Format                         : Matroska
Format version                 : Version 4 / Version 2
File size                      : 111 MiB
Duration                       : 6 min 29 s
Overall bit rate               : 2 387 kb/s
Movie name                     : Tangled Ever After 2012

Video
Format                         : AVC
Codec ID                       : V_MPEG4/ISO/AVC
Duration                       : 6 min 29 s
Bit rate                       : 1 799 kb/s
Width                          : 1 920 pixels
Height                         : 1 080 pixels
Display aspect ratio           : 16:9
Frame rate mode                : Constant
Frame rate                     : 23.976 (24000/1001) FPS
Stream size                    : 83.4 MiB (75%)
Writing library                : x264 core 148 r2708 86b7198

Audio #1
Format                         : AAC
Duration                       : 6 min 29 s
Bit rate                       : 384 kb/s
Channel(s)                     : 6 channels
Channel positions              : Front: L C R, Side: L R, LFE
Sampling rate                  : 44.1 kHz
Frame rate                     : 43.066 FPS (1024 SPF)
Stream size                    : 17.7 MiB (16%)
Language                       : English

Audio #2
Format                         : AAC
Duration                       : 6 min 29 s
Bit rate                       : 205 kb/s
Channel(s)                     : 6 channels
Channel positions              : Front: L C R, Side: L R, LFE
Sampling rate                  : 44.1 kHz
Frame rate                     : 43.066 FPS (1024 SPF)
Stream size                    : 9.50 MiB (9%)
Language                       : Hindi

Text
Language                       : English


Category:Movies > Hollywood Dub
Lang:Hindi
Total Size:110.72 MB
Info Hash:14dbe3120e8b640dadc9d8716ad7159fc42a4eca
Added By:gopisahi
Date Added:06-09-2017 14:31:35
Views:559
Hits:97

Download Torrent

Ratings:Not Yet Rated (Log in to rate it)


Tracker:
udp://tracker.coppersurfer.tk:6969/announce


File List: 


Comments

No comments still posted

Powered by 10 Hamsters v2-svn -|- Page Generated In 0.415059 secs.
-|- RSS FEED
Theme By: Nikkbu