[Login] or [Signup]
Login
Username:
Password:
[Signup]
[Recover Account]


Poll


You must be logged in to view polls



Torrent Details For "Mukkabaaz (2018) Hindi 720p HDRip x264 AAC 1.4GB [MovCR]"

Mukkabaaz (2018) Hindi 720p HDRip x264 AAC 1.4GB [MovCR]

Download this torrent | Magnet Download
Health:
Seeds: 129
Leechers: 92
Completed: 1,340 
Last Checked: 18-04-2018 19:50:17
External Torrent
Update Stats
Download Magnet


Poster


iMDB
Imdb Picture Original Title: Mukkabaaz
Title: The Brawler
Year: 2017
Runtime: 154 minutes
Votes: 1097
Rating: 8.5/10
Language: Hindi
Country: India
All Genres: Action, Drama, Sport
Plot Outline: A lower caste boxer struggles to make his mark on the boxing world.
Director: Anurag Kashyap
Writing By: Ranjan Chandel,Anurag Kashyap,Prasoon Mishra,Singh Srinet Mukti,K.D. Satyam,Vineet Kumar Singh,
Produced By: Vishesh Agrawal,Anurag Kashyap,Madhu Mantena Varma,Vikramaditya Motwane,Ajay Rai,Anand L. Rai,
Music: Rachita Arora
Cast:
Vineet Kumar Singh as Shravan
Zoya Hussain as Sunaina
Ravi Kishan as Sanjay Kumar
Jimmy Shergill as Bhagwan
Rajesh Tailang as Vijay Singh
Shreedhar Dubey as Gopal Tiwari
Trailers:
Mukkabaaz Trailer


Watch-Free-HD     Download

Details
Name:Mukkabaaz (2018) Hindi 720p HDRip x264 AAC 1.4GB [MovCR]
Description:
Visit   www.movcr.com


Mukkabaaz (2018) Hindi 720p HDRip x264 AAC 1.4GB [MovCR]

 http://www.imdb.com/title/tt7180544/

 

General
Complete name                            : [www.MovCR.com] Mukkabaaz (2018) Hindi 720p HDRip x264 AAC 1.4GB [MovCR]\www.MovCR.com - Mukkabaaz (2018) Hindi 720p HDRip x264 AAC 1.4GB [MovCR].mkv
Format                                   : Matroska
Format version                           : Version 4 / Version 2
File size                                : 1.36 GiB
Duration                                 : 2 h 35 min
Overall bit rate                         : 1 253 kb/s
Movie name                               : www.MovCR.com
Encoded date                             : UTC 2018-04-13 18:15:17
Writing application                      : mkvmerge v9.5.0 ('Quiet Fire') 64bit
Writing library                          : libebml v1.3.4 + libmatroska v1.4.5

Video
ID                                       : 1
Format                                   : AVC
Format/Info                              : Advanced Video Codec
Format profile                           : [email protected]
Format settings                          : CABAC / 4 Ref Frames
Format settings, CABAC                   : Yes
Format settings, RefFrames               : 4 frames
Codec ID                                 : V_MPEG4/ISO/AVC
Duration                                 : 2 h 35 min
Bit rate                                 : 1 128 kb/s
Width                                    : 1 280 pixels
Height                                   : 544 pixels
Display aspect ratio                     : 2.35:1
Frame rate mode                          : Constant
Frame rate                               : 24.000 FPS
Color space                              : YUV
Chroma subsampling                       : 4:2:0
Bit depth                                : 8 bits
Scan type                                : Progressive
Bits/(Pixel*Frame)                       : 0.067
Stream size                              : 1.22 GiB (90%)
Title                                    : www.MovCR.com
Writing library                          : x264 core 112
Encoding settings                        : cabac=1 / ref=2 / deblock=1:0:0 / analyse=0x1:0x111 / me=hex / subme=6 / psy=1 / psy_rd=1.00:0.00 / mixed_ref=0 / me_range=16 / chroma_me=1 / trellis=0 / 8x8dct=0 / cqm=0 / deadzone=21,11 / fast_pskip=1 / chroma_qp_offset=-2 / threads=12 / sliced_threads=0 / nr=0 / decimate=1 / interlaced=0 / constrained_intra=0 / bframes=2 / b_pyramid=2 / b_adapt=1 / b_bias=0 / direct=1 / weightb=0 / open_gop=0 / weightp=2 / keyint=240 / keyint_min=24 / scenecut=40 / intra_refresh=0 / rc_lookahead=40 / rc=abr / mbtree=1 / bitrate=1128 / ratetol=1.0 / qcomp=0.60 / qpmin=3 / qpmax=51 / qpstep=4 / ip_ratio=1.40 / aq=1:1.00
Language                                 : English
Default                                  : Yes
Forced                                   : No
Color range                              : Limited
Color primaries                          : BT.709
Transfer characteristics                 : BT.709
Matrix coefficients                      : BT.709

Audio
ID                                       : 2
Format                                   : AAC
Format/Info                              : Advanced Audio Codec
Format profile                           : LC
Codec ID                                 : A_AAC-2
Duration                                 : 2 h 35 min
Bit rate                                 : 127 kb/s
Channel(s)                               : 2 channels
Channel positions                        : Front: L R
Sampling rate                            : 48.0 kHz
Frame rate                               : 46.875 FPS (1024 SPF)
Compression mode                         : Lossy
Stream size                              : 141 MiB (10%)
Title                                    : www.MovCR.com
Language                                 : Hindi
Default                                  : Yes
Forced                                   : No



 
 
 
 
 
 
 
Category:Movies > Bollywood
Lang:Hindi
Total Size:1.37 GB
Info Hash:543fe0ebb758a7e7eab931c78cb559aa00e5382a
Added By:MAZE
Date Added:13-04-2018 19:26:17
Views:1,913
Hits:358

Download Torrent

Ratings:Not Yet Rated (Log in to rate it)


Tracker:
udp://tracker.openbittorrent.com:80/announce

This Torrent also has backup trackers
URLSeedersLeechersCompleted
http://tracker2.itzmx.com:6961/announce1026
http://tracker.vanitycore.co:6969/announce7565
http://tracker.torrentyorg.pl:80/announce1218
http://tracker.tfile.me:80/announce000
http://tracker.mg64.net:6881/announce5479
http://tracker.electro-torrent.pl:80/announce1218
http://torrentsmd.me:8080/announce010
http://share.camoe.cn:8080/announce000
http://servandroidkino.ru:80/announce14220
http://p4p.arenabg.com:1337/announce000
http://open.acgtracker.com:1096/announce000
http://omg.wtftrackr.pw:1337/announce1111
http://mgtracker.org:6969/announce6779
http://bt.dl1234.com:80/announce3418
http://agusiq-torrents.pl:6969/announce41010
http://104.238.198.186:8000/announce77166


File List: 


Comments

No comments still posted

Powered by 10 Hamsters v2-svn -|- Page Generated In 1.329106 secs.
-|- RSS FEED
Theme By: Nikkbu