[Login] or [Signup]
Login
Username:
Password:
[Signup]
[Recover Account]


Poll


You must be logged in to view polls



Torrent Details For "Total Dadagiri (Bengali Movie) - 1CD - HDTVRip[x264 - AAC3(5.1Ch)]"

Total Dadagiri (Bengali Movie) - 1CD - HDTVRip[x264 - AAC3(5.1Ch)]

Download this torrent | Magnet Download
Health:
Seeds: 42
Leechers: 13
Completed: 45 
Last Checked: 17-04-2018 14:45:25
External Torrent
Update Stats
Download Magnet


Poster


iMDB
Imdb Picture Title: Total Dadagiri
Year: 2018
Runtime: 130 minutes
Votes: 29
Rating: 7.0/10
Language: Bengali
Country: India
All Genres: Romance
Plot Outline: Total Dadagiri is a romantic comedy drama directed Pathikrit Basu. This is an entertaining story involving Joy (Yash) and Jonaki (Mimi) , two college graduates who fall in love, after a few...
Director: Pathikrit Basu

Cast:
Yash Dasgupta as Joy Das
Mimi Chakraborty as Jonaki
Shankar Chakraborty as Bibhuti Bhushan Das
Yash Dasgupta as Joy
Rajatabha Dutta as


Watch-Free-HD     Download

Details
Name:Total Dadagiri (Bengali Movie) - 1CD - HDTVRip[x264 - AAC3(5.1Ch)]
Description:
Total Dadagiri (Bengali Movie) - 1CD -
HDTVRip[x264 - AAC3(5.1Ch)]
 






General
Format                                   : Matroska
Format version                           : Version 2
File size                                : 698 MiB
Duration                                 : 2 h 31 min

Video
ID                                       : 1
Format                                   : AVC
Format/Info                              : Advanced Video Codec
Format profile                           : [email protected]
Format settings                          : CABAC / 4 Ref Frames
Format settings, CABAC                   : Yes
Format settings, RefFrames               : 4 frames
Codec ID                                 : V_MPEG4/ISO/AVC
Duration                                 : 2 h 31 min
Bit rate                                 : 514 kb/s
Width                                    : 640 pixels
Height                                   : 272 pixels
Display aspect ratio                     : 2.35:1
Frame rate mode                          : Constant
Frame rate                               : 25.000 FPS
Color space                              : YUV
Chroma subsampling                       : 4:2:0
Bit depth                                : 8 bits
Scan type                                : Progressive
Bits/(Pixel*Frame)                       : 0.118
Stream size                              : 557 MiB (80%)

Audio
ID                                       : 2
Format                                   : AAC
Format/Info                              : Advanced Audio Codec
Format profile                           : HE-AAC / LC
Format settings                          : Explicit
Codec ID                                 : A_AAC-2
Duration                                 : 2 h 31 min
Bit rate                                 : 128 kb/s
Channel(s)                               : 6 channels
Channel positions                        : Front: L C R, Side: L R, LFE
Sampling rate                            : 48.0 kHz
Stream size                              : 139 MiB (20%)  

Thumbnail





Category:Movies > Bengali
Lang:Bengali  Bengali
Total Size:698.03 MB
Info Hash:e314b31f1742742d9ceb314f45ed46f90ab5c68f
Added By:Pherarim
Date Added:16-04-2018 11:09:21
Views:249
Hits:44

Download Torrent

Ratings:Not Yet Rated (Log in to rate it)

  


Tracker:
http://tracker.trackerfix.com:80/announce


File List: 


Comments

No comments still posted

Powered by 10 Hamsters v2-svn -|- Page Generated In 1.795210 secs.
-|- RSS FEED
Theme By: Nikkbu