[Login] or [Signup]
Login
Username:
Password:
[Signup]
[Recover Account]


Poll


You must be logged in to view polls



Torrent Details For "Lajja (2016) Hindi Dubbed 720p HDRip x264 AAC [ MovCR]"

Lajja (2016) Hindi Dubbed 720p HDRip x264 AAC [ MovCR]

Download this torrent | Magnet Download
Health:
Seeds: 620
Leechers: 1,117
Completed: 1,242 
Last Checked: 17-04-2018 08:35:28
External Torrent
Update Stats
Download Magnet


Poster


iMDB
Imdb Picture Title: Lajja
Year: 2016
Runtime: 144 minutes
Votes: 12
Rating: 5.9/10
Language: Telugu
Country: India
All Genres: Drama
Plot Outline: An unhappy wife finds love outside of marriage, but can she also find peace?
Director: Narasimha Nandi
Writing By: K.V.S.N. Anil Kumar,K.V.S.N. Anil Kumar,Narasimha Nandi,
Produced By: Buchenpalli Thirupathy Reddy,
Music: Sukku
Cast:
Madhumita as Susheela
Shiva as Saleem
Varun Aleti as Sameer
Madhav as Shridhar Rao (Husband)
Mahanthi as Inspector
Abhi as Masthan
Pawani as Mumtaz
Naushaad Abbas as Nattu


Watch-Free-HD     Download

Details
Name:Lajja (2016) Hindi Dubbed 720p HDRip x264 AAC [ MovCR]
Description:
Visit   www.movcr.com

Lajja (2016) Hindi Dubbed 720p HDRip x264 AAC [ MovCR]

 http://www.imdb.com/title/tt5465308/

 

General
Complete name                            : [www.MovCR.com] Lajja (2016) Hindi Dubbed 720p HDRip x264 AAC [ MovCR]\www.MovCR.com - Lajja (2016) Hindi Dubbed 720p HDRip x264 AAC [ MovCR].mkv
Format                                   : Matroska
Format version                           : Version 4 / Version 2
File size                                : 853 MiB
Duration                                 : 2 h 17 min
Overall bit rate                         : 866 kb/s
Movie name                               : www.MovCR.com
Encoded date                             : UTC 2018-04-16 10:48:58
Writing application                      : mkvmerge v9.5.0 ('Quiet Fire') 64bit
Writing library                          : libebml v1.3.4 + libmatroska v1.4.5 / IDMmkvlib0.1
Language                                 : und

Video
ID                                       : 1
Format                                   : VP9
Codec ID                                 : V_VP9
Duration                                 : 2 h 17 min
Bit rate                                 : 720 kb/s
Width                                    : 1 280 pixels
Height                                   : 720 pixels
Display aspect ratio                     : 16:9
Frame rate mode                          : Constant
Frame rate                               : 24.000 FPS
Bits/(Pixel*Frame)                       : 0.033
Stream size                              : 709 MiB (83%)
Title                                    : www.MovCR.com
Default                                  : Yes
Forced                                   : No

Audio
ID                                       : 2
Format                                   : Opus
Codec ID                                 : A_OPUS
Duration                                 : 2 h 17 min
Bit rate                                 : 143 kb/s
Channel(s)                               : 2 channels
Channel positions                        : Front: L R
Sampling rate                            : 48.0 kHz
Frame rate                               : 50.000 FPS (960 SPF)
Compression mode                         : Lossy
Stream size                              : 141 MiB (17%)
Title                                    : www.MovCR.com
Default                                  : Yes
Forced                                   : No



 
 
 
 
 
 
 
 
 
Category:Movies > South Dub
Lang:Hindi
Total Size:947.35 MB
Info Hash:15c66e79c8585897634ea01af4df194af82132a5
Added By:MAZE
Date Added:16-04-2018 12:14:16
Views:1,408
Hits:149

Download Torrent

Ratings:Not Yet Rated (Log in to rate it)


Tracker:
udp://tracker.openbittorrent.com:80/announce

This Torrent also has backup trackers
URLSeedersLeechersCompleted
http://tracker2.itzmx.com:6961/announce000
http://tracker.vanitycore.co:6969/announce133215
http://tracker.torrentyorg.pl:80/announce8198
http://tracker.tfile.me:80/announce160
http://tracker.mg64.net:6881/announce000
http://tracker.electro-torrent.pl:80/announce6220
http://torrentsmd.me:8080/announce110
http://share.camoe.cn:8080/announce000
http://servandroidkino.ru:80/announce160
http://p4p.arenabg.com:1337/announce000
http://open.acgtracker.com:1096/announce150
http://omg.wtftrackr.pw:1337/announce6133
http://mgtracker.org:6969/announce143223
http://bt.dl1234.com:80/announce3209
http://agusiq-torrents.pl:6969/announce130
http://104.238.198.186:8000/announce80127191


File List: 


Comments

No comments still posted

Powered by 10 Hamsters v2-svn -|- Page Generated In 1.563587 secs.
-|- RSS FEED
Theme By: Nikkbu