[Login] or [Signup]
Login
Username:
Password:
[Signup]
[Recover Account]


Poll


You must be logged in to view polls



Torrent Details For "Ekta Bhalobasar Golpo (2018)Zee Bangla Cinema - 1CD - HDTV Rip[x264 - AAC3(5.1Ch)]"

Ekta Bhalobasar Golpo (2018)Zee Bangla Cinema - 1CD - HDTV Rip[x264 - AAC3(5.1Ch)]

Download this torrent | Magnet Download
Health:
Seeds: 20
Leechers: 12
Completed: 11 
Last Checked: 10-05-2018 17:57:41
External Torrent
Update Stats
Download Magnet


Poster


Watch-Free-HD     Download

Details
Name:Ekta Bhalobasar Golpo (2018)Zee Bangla Cinema - 1CD - HDTV Rip[x264 - AAC3(5.1Ch)]
Description:
Ekta Bhalobasar Golpo (2018)Zee Bangla Cinema -
1CD - HDTV Rip[x264 - AAC3(5.1Ch)]
 






General
Format                                   : Matroska
Format version                           : Version 2
File size                                : 700 MiB
Duration                                 : 2 h 15 min

Video
ID                                       : 1
Format                                   : AVC
Format/Info                              : Advanced Video Codec
Format profile                           : [email protected]
Format settings                          : CABAC / 4 Ref Frames
Format settings, CABAC                   : Yes
Format settings, RefFrames               : 4 frames
Codec ID                                 : V_MPEG4/ISO/AVC
Duration                                 : 2 h 15 min
Bit rate                                 : 590 kb/s
Width                                    : 640 pixels
Height                                   : 288 pixels
Display aspect ratio                     : 2.222
Frame rate mode                          : Constant
Frame rate                               : 25.000 FPS
Color space                              : YUV
Chroma subsampling                       : 4:2:0
Bit depth                                : 8 bits
Scan type                                : Progressive
Bits/(Pixel*Frame)                       : 0.128
Stream size                              : 574 MiB (82%)

Audio
ID                                       : 2
Format                                   : AAC
Format/Info                              : Advanced Audio Codec
Format profile                           : HE-AAC / LC
Format settings                          : Explicit
Codec ID                                 : A_AAC-2
Duration                                 : 2 h 15 min
Bit rate                                 : 128 kb/s
Channel(s)                               : 6 channels
Channel positions                        : Front: L C R, Side: L R, LFE
Sampling rate                            : 48.0 kHz
Stream size                              : 124 MiB (18%)


Thumbnail




Category:Movies > Bengali
Lang:Bengali  Bengali
Total Size:699.94 MB
Info Hash:f73277e734c6715af954a98d8d1ddccbf995b52b
Added By:Pherarim
Date Added:09-05-2018 21:27:32
Views:189
Hits:22

Download Torrent

Ratings:Not Yet Rated (Log in to rate it)

  


Tracker:
udp://tracker.trackerfix.com:80/announce


File List: 


Comments

No comments still posted

Powered by 10 Hamsters v2-svn -|- Page Generated In 1.485414 secs.
-|- RSS FEED
Theme By: Nikkbu