[Login] or [Signup]
Login
Username:
Password:
[Signup]
[Recover Account]


Poll


You must be logged in to view polls



Torrent Details For "Bolo Dugga Maiki (2017) Bengali 720p HDRip x264 AAC 900MB [MRbuZ]"

Bolo Dugga Maiki (2017) Bengali 720p HDRip x264 AAC 900MB [MRbuZ]

Download this torrent | Magnet Download
Health:
Seeds: 0
Leechers: 0
Completed:
Last Checked: 10-05-2018 08:12:09
External Torrent
Update Stats
Download Magnet


Poster


iMDB
Title: Bolo Dugga Maiki
Year: 2017
Language: Bengali
Country: India
All Genres: Romance
Director: Raj Chakraborty
Writing By: Raj Chakraborty,N.K. Salil,
Produced By: Shrikant Mohta,Mahendra Soni,
Music: Arindam Chatterjee
Cast:
Paran Bandopadhyay as
Kaushik Banerjee as
Soumen Bhattacharya as
Proshor Biswas as
Parthasarathi Chakraborty as
Horidas Chatterjee as
Ishita Chatterjee as
Saurav Das as Bangal
Rupsa Dasgupta as
Rajatava Datta as Gobor


Watch-Free-HD     Download

Details
Name:Bolo Dugga Maiki (2017) Bengali 720p HDRip x264 AAC 900MB [MRbuZ]
Description:
Visit   www.mrbuz.com

Bolo Dugga Maiki (2017) Bengali 720p HDRip x264 AAC 900MB [MRbuZ]

 http://www.imdb.com/title/tt8016500/

 

General
Unique ID                   : 271903648639267917815120413543802592860 (0xCC8EBCE66020D8991CAC763945FBDE5C)
Complete name               : [www.MRbuZ.com]  Bolo Dugga Maiki (2017) Bengali 720p HDRip x264 AAC 900MB [MRbuZ]\www.MRbuZ.com -  Bolo Dugga Maiki (2017) Bengali 720p HDRip x264 AAC 900MB [MRbuZ].mkv
Format                      : Matroska
Format version              : Version 4 / Version 2
File size                   : 947 MiB
Duration                    : 2 h 28 min
Overall bit rate            : 890 kb/s
Movie name                  : www.MRbuZ.com
Encoded date                : UTC 2018-05-10 06:59:53
Writing application         : mkvmerge v22.0.0 ('At The End Of The World') 64-bit
Writing library             : libebml v1.3.5 + libmatroska v1.4.8

Video
ID                          : 1
Format                      : AVC
Format/Info                 : Advanced Video Codec
Format profile              : [email protected]
Format settings, CABAC      : Yes
Format settings, ReFrames   : 4 frames
Codec ID                    : V_MPEG4/ISO/AVC
Duration                    : 2 h 28 min
Bit rate                    : 504 kb/s
Width                       : 1 280 pixels
Height                      : 544 pixels
Display aspect ratio        : 2.35:1
Frame rate mode             : Constant
Frame rate                  : 25.000 FPS
Color space                 : YUV
Chroma subsampling          : 4:2:0
Bit depth                   : 8 bits
Scan type                   : Progressive
Bits/(Pixel*Frame)          : 0.029
Stream size                 : 536 MiB (57%)
Title                       : www.MRbuZ.com
Writing library             : x264 core 155 r2901 7d0ff22
Encoding settings           : cabac=1 / ref=3 / deblock=1:0:0 / analyse=0x3:0x113 / me=hex / subme=7 / psy=1 / psy_rd=1.00:0.00 / mixed_ref=1 / me_range=16 / chroma_me=1 / trellis=1 / 8x8dct=1 / cqm=0 / deadzone=21,11 / fast_pskip=1 / chroma_qp_offset=-2 / threads=12 / lookahead_threads=2 / sliced_threads=0 / nr=0 / decimate=1 / interlaced=0 / bluray_compat=0 / constrained_intra=0 / bframes=3 / b_pyramid=2 / b_adapt=1 / b_bias=0 / direct=1 / weightb=1 / open_gop=0 / weightp=2 / keyint=250 / keyint_min=25 / scenecut=40 / intra_refresh=0 / rc_lookahead=40 / rc=2pass / mbtree=1 / bitrate=504 / ratetol=1.0 / qcomp=0.60 / qpmin=0 / qpmax=69 / qpstep=4 / cplxblur=20.0 / qblur=0.5 / ip_ratio=1.40 / aq=1:1.00
Default                     : Yes
Forced                      : No

Audio
ID                          : 2
Format                      : AC-3
Format/Info                 : Audio Coding 3
Mode extension              : CM (complete main)
Format settings, Endianness : Big
Codec ID                    : A_AC3
Duration                    : 2 h 28 min
Bit rate mode               : Constant
Bit rate                    : 384 kb/s
Channel(s)                  : 2 channels
Channel positions           : Front: L R
Sampling rate               : 48.0 kHz
Frame rate                  : 31.250 FPS (1536 spf)
Bit depth                   : 16 bits
Compression mode            : Lossy
Stream size                 : 409 MiB (43%)
Title                       : www.MRbuZ.com
Language                    : Bengali
Default                     : Yes
Forced                      : No



 
 
 
 
 
 
 
 
Category:Movies > Bengali
Lang:Bengali  Bengali
Total Size:947.05 MB
Info Hash:ac6c4208690883b0d67fe4e8397eb690e710f22f
Added By:MAZE
Date Added:10-05-2018 08:12:09
Views:231
Hits:19

Download Torrent

Ratings:Not Yet Rated (Log in to rate it)


Tracker:
udp://tracker.openbittorrent.com:80/announce

This Torrent also has backup trackers
URLSeedersLeechersCompleted
http://t.nyaatracker.com:80/announce000
http://asnet.pw:2710/announce000
http://tracker.tfile.co:80/announce000
http://pt.lax.mx:80/announce000
http://tracker.bt-hash.com:443/announce000
http://grifon.info:80/announce000
http://retracker.spark-rostov.ru:80/announce000
http://tr.kxmp.cf:80/announce000
http://tracker.city9x.com:2710/announce000
http://tracker.tfile.me:80/announce000
http://retracker.telecom.by:80/announce000
http://tracker.electro-torrent.pl:80/announce000
http://open.kickasstracker.com:443/announce000
http://retracker.mgts.by:80/announce000
http://retracker.bashtel.ru:80/announce000
http://tracker.devil-torrents.pl:80/announce000
http://torrentsmd.eu:8080/announce000
http://ns349743.ip-91-121-106.eu:80/announce000
http://torrentsmd.me:8080/announce000
http://agusiq-torrents.pl:6969/announce000
http://fxtt.ru:80/announce000


File List: 


Comments

No comments still posted

Powered by 10 Hamsters v2-svn -|- Page Generated In 1.385951 secs.
-|- RSS FEED
Theme By: Nikkbu