[Login] or [Signup]
Login
Username:
Password:
[Signup]
[Recover Account]


Poll


You must be logged in to view polls



Torrent Details For "Raja Rani Raji (2018) Bengali 720p Untouched WEBHD AAC - 1.8GB [MRbuZ]"

Raja Rani Raji (2018) Bengali 720p Untouched WEBHD AAC - 1.8GB [MRbuZ]

Download this torrent | Magnet Download
Health:
Seeds: 111
Leechers: 19
Completed: 783 
Last Checked: 19-05-2018 14:05:01
External Torrent
Update Stats
Download Magnet


Poster


Watch-Free-HD     Download

Details
Name:Raja Rani Raji (2018) Bengali 720p Untouched WEBHD AAC - 1.8GB [MRbuZ]
Description:
Visit    www.mrbuz.com

Raja Rani Raji (2018) Bengali 720p Untouched WEBHD AAC - 1.8GB [MRbuZ]

 

General
Unique ID                   : 78961250048773121079239444406695998870 (0x3B6762330DC0EFC9239894815B0DB596)
Complete name               : [www.MRbuZ.com]Raja Rani Raji (2018) Bengali 720p Untouched WEBHD AAC - 1.8GB [MRbuZ]\www.MRbuZ.com-Raja Rani Raji (2018) Bengali 720p Untouched WEBHD AAC - 1.8GB [MRbuZ].mkv
Format                      : Matroska
Format version              : Version 4 / Version 2
File size                   : 1.86 GiB
Duration                    : 2 h 13 min
Overall bit rate            : 1 987 kb/s
Movie name                  : www.MRbuZ.com
Encoded date                : UTC 2018-05-10 13:29:46
Writing application         : mkvmerge v22.0.0 ('At The End Of The World') 64-bit
Writing library             : libebml v1.3.5 + libmatroska v1.4.8

Video
ID                          : 1
Format                      : AVC
Format/Info                 : Advanced Video Codec
Format profile              : [email protected]
Format settings, CABAC      : Yes
Format settings, ReFrames   : 1 frame
Format settings, GOP        : M=1, N=25
Codec ID                    : V_MPEG4/ISO/AVC
Duration                    : 2 h 13 min
Bit rate mode               : Constant
Bit rate                    : 2 000 kb/s
Width                       : 1 280 pixels
Height                      : 720 pixels
Display aspect ratio        : 16:9
Frame rate mode             : Constant
Frame rate                  : 25.000 FPS
Color space                 : YUV
Chroma subsampling          : 4:2:0
Bit depth                   : 8 bits
Scan type                   : Progressive
Bits/(Pixel*Frame)          : 0.087
Stream size                 : 1.80 GiB (97%)
Title                       : www.MRbuZ.com
Default                     : Yes
Forced                      : No

Audio
ID                          : 2
Format                      : AAC
Format/Info                 : Advanced Audio Codec
Format profile              : Main
Codec ID                    : A_AAC
Duration                    : 2 h 13 min
Bit rate                    : 61.4 kb/s
Channel(s)                  : 2 channels
Channel positions           : Front: L R
Sampling rate               : 48.0 kHz
Frame rate                  : 46.875 FPS (1024 spf)
Compression mode            : Lossy
Stream size                 : 58.8 MiB (3%)
Title                       : www.MRbuZ.com
Language                    : Bengali
Default                     : Yes
Forced                      : No



 
 
 
 
 
 
 
Category:Movies > Bengali
Lang:Bengali  Bengali
Total Size:1.86 GB
Info Hash:69314763dfeabf1d24e023fd29c014aa594914c8
Added By:Unknown
Date Added:10-05-2018 15:08:38
Views:330
Hits:60

Download Torrent

Ratings:Not Yet Rated (Log in to rate it)


Tracker:
udp://tracker.openbittorrent.com:80/announce

This Torrent also has backup trackers
URLSeedersLeechersCompleted
http://t.nyaatracker.com:80/announce000
http://asnet.pw:2710/announce000
http://tracker.tfile.co:80/announce000
http://pt.lax.mx:80/announce000
http://tracker.bt-hash.com:443/announce000
http://grifon.info:80/announce000
http://retracker.spark-rostov.ru:80/announce000
http://tr.kxmp.cf:80/announce000
http://tracker.city9x.com:2710/announce1015
http://tracker.tfile.me:80/announce000
http://retracker.telecom.by:80/announce000
http://tracker.electro-torrent.pl:80/announce000
http://open.kickasstracker.com:443/announce000
http://retracker.mgts.by:80/announce1014
http://retracker.bashtel.ru:80/announce000
http://tracker.devil-torrents.pl:80/announce000
http://torrentsmd.eu:8080/announce000
http://ns349743.ip-91-121-106.eu:80/announce000
http://torrentsmd.me:8080/announce000
http://agusiq-torrents.pl:6969/announce000
http://fxtt.ru:80/announce000


File List: 


Comments

No comments still posted

Powered by 10 Hamsters v2-svn -|- Page Generated In 1.250162 secs.
-|- RSS FEED
Theme By: Nikkbu