[Login] or [Signup]
Login
Username:
Password:
[Signup]
[Recover Account]


Poll


You must be logged in to view polls



Torrent Details For "Laboratory (A Tagore special) - 1CD - Bengali Web Series Rip[x264 - AAC3(5.1Ch)]"

Laboratory (A Tagore special) - 1CD - Bengali Web Series Rip[x264 - AAC3(5.1Ch)]

Download this torrent | Magnet Download
Health:
Seeds: 20
Leechers: 0
Completed: 17 
Last Checked: 16-05-2018 08:39:04
External Torrent
Update Stats
Download Magnet


Poster


Watch-Free-HD     Download

Details
Name:Laboratory (A Tagore special) - 1CD - Bengali Web Series Rip[x264 - AAC3(5.1Ch)]
Description:
Laboratory (A Tagore special) - 1CD -
Bengali Web Series Rip[x264 - AAC3(5.1Ch)]






General
Format                                   : Matroska
Format version                           : Version 2
File size                                : 700 MiB
Duration                                 : 1 h 52 min

Video
ID                                       : 1
Format                                   : AVC
Format/Info                              : Advanced Video Codec
Format profile                           : [email protected]
Format settings                          : CABAC / 4 Ref Frames
Format settings, CABAC                   : Yes
Format settings, RefFrames               : 4 frames
Codec ID                                 : V_MPEG4/ISO/AVC
Duration                                 : 1 h 52 min
Bit rate                                 : 739 kb/s
Width                                    : 720 pixels
Height                                   : 392 pixels
Display aspect ratio                     : 1.85:1
Frame rate mode                          : Constant
Frame rate                               : 25.000 FPS
Color space                              : YUV
Chroma subsampling                       : 4:2:0
Bit depth                                : 8 bits
Scan type                                : Progressive
Bits/(Pixel*Frame)                       : 0.105
Stream size                              : 596 MiB (85%)

Audio
ID                                       : 2
Format                                   : AAC
Format/Info                              : Advanced Audio Codec
Format profile                           : HE-AAC / LC
Format settings                          : Explicit
Codec ID                                 : A_AAC-2
Duration                                 : 1 h 52 min
Bit rate                                 : 128 kb/s
Channel(s)                               : 6 channels
Channel positions                        : Front: L C R, Side: L R, LFE
Sampling rate                            : 48.0 kHz
Stream size                              : 103 MiB (15%)



Thumbnail




Category:Movies > Bengali
Lang:Bengali  Bengali
Total Size:700.39 MB
Info Hash:26be2801fc1cb3736d39bf034a167e44bb2c9ed4
Added By:Pherarim
Date Added:13-05-2018 00:43:00
Views:259
Hits:14

Download Torrent

Ratings:Not Yet Rated (Log in to rate it)

  


Tracker:
udp://tracker.trackerfix.com:80/announce


File List: 


Comments

No comments still posted

Powered by 10 Hamsters v2-svn -|- Page Generated In 0.639897 secs.
-|- RSS FEED
Theme By: Nikkbu