[Login] or [Signup]
Login
Username:
Password:
[Signup]
[Recover Account]


Poll


You must be logged in to view polls



Torrent Details For "Logon Boye Jaaye (2018) - Zee Bangla Cinema - 2CD - DTH Rip[x264 - AAC3(5.1Ch)]"

Logon Boye Jaaye (2018) - Zee Bangla Cinema - 2CD - DTH Rip[x264 - AAC3(5.1Ch)]

Download this torrent | Magnet Download
Health:
Seeds: 37
Leechers: 10
Completed:
Last Checked: 16-05-2018 08:44:02
External Torrent
Update Stats
Download Magnet


Poster


Watch-Free-HD     Download

Details
Name:Logon Boye Jaaye (2018) - Zee Bangla Cinema - 2CD - DTH Rip[x264 - AAC3(5.1Ch)]
Description:
Logon Boye Jaaye (2018) - Zee Bangla Cinema -
2CD - DTH Rip[x264 - AAC3(5.1Ch)]






General
Format                                   : Matroska
Format version                           : Version 2
File size                                : 1.40 GiB
Duration                                 : 2 h 15 min

Video
ID                                       : 1
Format                                   : AVC
Format/Info                              : Advanced Video Codec
Format profile                           : [email protected]
Format settings                          : CABAC / 4 Ref Frames
Format settings, CABAC                   : Yes
Format settings, RefFrames               : 4 frames
Codec ID                                 : V_MPEG4/ISO/AVC
Duration                                 : 2 h 15 min
Bit rate                                 : 1 292 kb/s
Width                                    : 720 pixels
Height                                   : 320 pixels
Display aspect ratio                     : 2.25:1
Frame rate mode                          : Constant
Frame rate                               : 25.000 FPS
Color space                              : YUV
Chroma subsampling                       : 4:2:0
Bit depth                                : 8 bits
Scan type                                : Progressive
Bits/(Pixel*Frame)                       : 0.224
Stream size                              : 1.22 GiB (87%)

Audio
ID                                       : 2
Format                                   : AC-3
Format/Info                              : Audio Coding 3
Codec ID                                 : A_AC3
Duration                                 : 2 h 15 min
Bit rate mode                            : Constant
Bit rate                                 : 192 kb/s
Channel(s)                               : 6 channels
Channel positions                        : Front: L C R, Side: L R, LFE
Sampling rate                            : 48.0 kHz
Stream size                              : 186 MiB (13%)



Thumbnail




Category:Movies > Bengali
Lang:Bengali  Bengali
Total Size:1.40 GB
Info Hash:150a91f3bd103f27cacd5f44156233eff9baa1c6
Added By:Pherarim
Date Added:15-05-2018 22:42:22
Views:168
Hits:9

Download Torrent

Ratings:Not Yet Rated (Log in to rate it)

  


Tracker:
udp://tracker.trackerfix.com:80/announce


File List: 


Comments

No comments still posted

Powered by 10 Hamsters v2-svn -|- Page Generated In 0.886927 secs.
-|- RSS FEED
Theme By: Nikkbu