[Login] or [Signup]
Login
Username:
Password:
[Signup]
[Recover Account]


Poll


You must be logged in to view polls



Torrent Details For "Logon Boye Jaaye (2018) - Zee Bangla Cinema - 1CD - DTH Rip[x264 - AAC3(5.1Ch)]"

Logon Boye Jaaye (2018) - Zee Bangla Cinema - 1CD - DTH Rip[x264 - AAC3(5.1Ch)]

Download this torrent | Magnet Download
Health:
Seeds: 71
Leechers: 3
Completed: 10 
Last Checked: 16-05-2018 08:43:11
External Torrent
Update Stats
Download Magnet


Poster


Watch-Free-HD     Download

Details
Name:Logon Boye Jaaye (2018) - Zee Bangla Cinema - 1CD - DTH Rip[x264 - AAC3(5.1Ch)]
Description:
Logon Boye Jaaye (2018) - Zee Bangla Cinema -
1CD - DTH Rip[x264 - AAC3(5.1Ch)]






General
Format                                   : Matroska
Format version                           : Version 2
File size                                : 700 MiB
Duration                                 : 2 h 15 min

Video
ID                                       : 1
Format                                   : AVC
Format/Info                              : Advanced Video Codec
Format profile                           : [email protected]
Format settings                          : CABAC / 4 Ref Frames
Format settings, CABAC                   : Yes
Format settings, RefFrames               : 4 frames
Codec ID                                 : V_MPEG4/ISO/AVC
Duration                                 : 2 h 15 min
Bit rate                                 : 595 kb/s
Width                                    : 640 pixels
Height                                   : 280 pixels
Display aspect ratio                     : 2.25:1
Frame rate mode                          : Constant
Frame rate                               : 25.000 FPS
Color space                              : YUV
Chroma subsampling                       : 4:2:0
Bit depth                                : 8 bits
Scan type                                : Progressive
Bits/(Pixel*Frame)                       : 0.133
Stream size                              : 575 MiB (82%)

Audio
ID                                       : 2
Format                                   : AAC
Format/Info                              : Advanced Audio Codec
Format profile                           : HE-AACv2 / HE-AAC / LC
Format settings                          : NBC
Codec ID                                 : A_AAC-2
Duration                                 : 2 h 15 min
Bit rate                                 : 128 kb/s
Channel(s)                               : 6 channels
Channel positions                        : Front: L R / Front: L R / Front: L R
Sampling rate                            : 48.0 kHz
Stream size                              : 124 MiB (18%)

Thumbnail




Category:Movies > Bengali
Lang:Bengali  Bengali
Total Size:700.07 MB
Info Hash:1dba80d314e29e462a06b0efee0e2c6ee74856c3
Added By:Pherarim
Date Added:15-05-2018 22:54:03
Views:155
Hits:10

Download Torrent

Ratings:Not Yet Rated (Log in to rate it)

  


Tracker:
udp://tracker.trackerfix.com:80/announce


File List: 


Comments

No comments still posted

Powered by 10 Hamsters v2-svn -|- Page Generated In 0.884420 secs.
-|- RSS FEED
Theme By: Nikkbu