[Login] or [Signup]
Login
Username:
Password:
[Signup]
[Recover Account]


Poll


You must be logged in to view polls



Torrent Details For "Logon Boye Jaaye (2018) - Zee Bangla Cinema - DTH Rip[x264 - AAC3(5.1Ch)] - 450 MB"

Logon Boye Jaaye (2018) - Zee Bangla Cinema - DTH Rip[x264 - AAC3(5.1Ch)] - 450 MB

Download this torrent | Magnet Download
Health:
Seeds: 38
Leechers: 0
Completed: 83 
Last Checked: 17-05-2018 00:56:22
External Torrent
Update Stats
Download Magnet


Poster


Watch-Free-HD     Download

Details
Name:Logon Boye Jaaye (2018) - Zee Bangla Cinema - DTH Rip[x264 - AAC3(5.1Ch)] - 450 MB
Description:
Logon Boye Jaaye (2018) - Zee Bangla Cinema -
DTH Rip[x264 - AAC3(5.1Ch)] - 450 MB






General
Format                                   : Matroska
Format version                           : Version 2
File size                                : 450 MiB
Duration                                 : 2 h 15 min
Overall bit rate                         : 465 kb/s

Video
ID                                       : 1
Format                                   : AVC
Format/Info                              : Advanced Video Codec
Format profile                           : [email protected]
Format settings                          : CABAC / 4 Ref Frames
Format settings, CABAC                   : Yes
Format settings, RefFrames               : 4 frames
Codec ID                                 : V_MPEG4/ISO/AVC
Duration                                 : 2 h 15 min
Bit rate                                 : 400 kb/s
Width                                    : 560 pixels
Height                                   : 248 pixels
Display aspect ratio                     : 2.25:1
Frame rate mode                          : Constant
Frame rate                               : 25.000 FPS
Color space                              : YUV
Chroma subsampling                       : 4:2:0
Bit depth                                : 8 bits
Scan type                                : Progressive
Bits/(Pixel*Frame)                       : 0.115
Stream size                              : 386 MiB (86%)

Audio
ID                                       : 2
Format                                   : AAC
Format/Info                              : Advanced Audio Codec
Format profile                           : HE-AAC / LC
Format settings                          : Explicit
Codec ID                                 : A_AAC-2
Duration                                 : 2 h 15 min
Bit rate                                 : 63.8 kb/s
Channel(s)                               : 6 channels
Channel positions                        : Front: L C R, Side: L R, LFE
Sampling rate                            : 48.0 kHz
Stream size                              : 61.7 MiB (14%)



Thumbnail




Category:Movies > Bengali
Lang:Bengali  Bengali
Total Size:449.80 MB
Info Hash:825430796a4d2ceb769da683b6b80a73462cb394
Added By:Pherarim
Date Added:15-05-2018 23:02:31
Views:288
Hits:8

Download Torrent

Ratings:Not Yet Rated (Log in to rate it)

  


Tracker:
udp://tracker.trackerfix.com:80/announce


File List: 


Comments

No comments still posted

Powered by 10 Hamsters v2-svn -|- Page Generated In 0.690461 secs.
-|- RSS FEED
Theme By: Nikkbu