[Login] or [Signup]
Login
Username:
Password:
[Signup]
[Recover Account]


Poll


You must be logged in to view polls



Torrent Details For "Armageddon.1998.BluRay.720p.x264.{Dual.Audio}.[Hindi.Org-English].-.Hon3yHD"

Armageddon.1998.BluRay.720p.x264.{Dual.Audio}.[Hindi.Org-English].-.Hon3yHD

Download this torrent | Magnet Download
Health:
Seeds: 3
Leechers: 2
Completed: 402 
Last Checked: 15-12-2018 08:40:23
External Torrent
Update Stats
Download Magnet


Poster
No poster


Watch-Free-HD     Download

Details
Name:Armageddon.1998.BluRay.720p.x264.{Dual.Audio}.[Hindi.Org-English].-.Hon3yHD
Description:



 http://www.imdb.com/title/tt0120591/

Format                      : Matroska
Format version              : Version 4 / Version 2
File size                   : 1.61 GiB
Duration                    : 2 h 30 min
Overall bit rate            : 1 533 kb/s

Video
ID                          : 1
Format                      : AVC
Format/Info                 : Advanced Video Codec
Format profile              : [email protected]
Format settings             : CABAC / 8 Ref Frames
Format settings, CABAC      : Yes
Format settings, ReFrames   : 8 frames
Codec ID                    : V_MPEG4/ISO/AVC
Duration                    : 2 h 30 min
Bit rate                    : 1 200 kb/s
Width                       : 1 280 pixels
Height                      : 532 pixels
Display aspect ratio        : 2.40:1
Frame rate mode             : Constant
Frame rate                  : 23.976 (24000/1001) FPS

Audio #1
ID                          : 2
Format                      : AAC
Format/Info                 : Advanced Audio Codec
Format profile              : LC
Codec ID                    : A_AAC-2
Duration                    : 2 h 30 min
Bit rate                    : 160 kb/s
Channel(s)                  : 2 channels
Channel positions           : Front: L R
Sampling rate               : 48.0 kHz
Frame rate                  : 46.875 FPS (1024 SPF)
Compression mode            : Lossy
Delay relative to video     : -21 ms
Stream size                 : 173 MiB (10%)
Title                       : Stereo
Language                    : Hindi

Audio #2
ID                          : 3
Format                      : AAC
Format/Info                 : Advanced Audio Codec
Format profile              : LC
Codec ID                    : A_AAC-2
Duration                    : 2 h 30 min
Bit rate                    : 160 kb/s
Channel(s)                  : 2 channels
Channel positions           : Front: L R
Sampling rate               : 48.0 kHz
Frame rate                  : 46.875 FPS (1024 SPF)
Compression mode            : Lossy
Delay relative to video     : -21 ms
Stream size                 : 173 MiB (10%)
Title                       : Stereo
Language                    : English

 http://hon3yhd.net

 
Category:Movies > Hollywood Dub
Lang:Hindi
Total Size:1.61 GB
Info Hash:3c62ba094f2d0fdc61b042cb2b95f62cfd899131
Added By:Unknown
Date Added:06-09-2018 05:04:47
Views:467
Hits:94

Download Torrent

Ratings:Not Yet Rated (Log in to rate it)


Tracker:
udp://tracker.coppersurfer.tk:6969/announce


File List: 


Comments

No comments still posted

Powered by 10 Hamsters v2-svn -|- Page Generated In 0.473814 secs.
-|- RSS FEED
Theme By: Nikkbu