[Login] or [Signup]
Login
Username:
Password:
[Signup]
[Recover Account]


Poll


You must be logged in to view polls



Torrent Details For "Detective Byomkesh Bakshy!(2015) - HDRip [x264 - AAC3(5.1Ch)] - 850 MB"

Detective Byomkesh Bakshy!(2015) - HDRip [x264 - AAC3(5.1Ch)] - 850 MB

Download this torrent | Magnet Download
Health:
Seeds: 0
Leechers: 0
Completed:
Last Checked: 28-09-2018 13:26:38
External Torrent
Update Stats
Download Magnet


Poster


iMDB
Imdb Picture Title: Detective Byomkesh Bakshy!
Year: 2015
Runtime: 139 minutes
Votes: 12109
Rating: 7.7/10
Language: Hindi
Country: India
All Genres: Action, Adventure, Drama, Mystery, Thriller
Plot Outline: Detective Byomkesh Bakshy is set in the 2nd World War torn Calcutta during the 1940s. Enter a magical world of nostalgia and 'Expect the Unexpected'.
Tagline: Expect The Unexpected
Director: Dibakar Banerjee
Writing By: Urmi Juvekar,Dibakar Banerjee,Saradindu Bandopadhyay,
Produced By: Dibakar Banerjee,Vikas Chandra,Aditya Chopra,Smriti Jain,Gaurav Mishra,
Music: Sneha Khanwalkar
Plot:

"CALCUTTA 1943 A WAR - A MYSTERY - and A DETECTIVE" Detective Byomkesh Bakshy is based on the early exploits of India's first true-blue detective, created by Bengali bestseller writer Saradindu Bandyopadhyay. Directed by Dibakar Banerjee, the film is set in the Second World War torn Calcutta during the 1940s and follows the first adventure of Byomkesh Bakshy (Sushant Singh Rajput), fresh out of college, as he pits himself against an evil genius who is out to destroy the world. Using his wits against the most villainous arch criminal the world has seen, in a world of murder, international political intrigue and seduction.

- Written by Official source

Detective Byomkesh Bakshy is set in the 2nd World War torn Calcutta during the 1940s. Enter a magical world of nostalgia and 'Expect the Unexpected'.

- Written by Official Source
Cast:
Sushant Singh Rajput as Byomkesh Bakshy
Anand Tiwari as Ajit Banerjee
Neeraj Kabi as Dr. Anukul Guha / Yang Guang
Divya Menon as Satyawati
Swastika Mukherjee as Anguri Devi
Meiyang Chang as Kanai Dao
Mark Bennington as Deputy Commissioner Wilkie
Takanori Higuchi as Dr. Watanabe
Shivam as Sukumar
Kaushik Ghosh as Gajanan Sikdar
Trailers:
Trailer


Watch-Free-HD     Download

Details
Name:Detective Byomkesh Bakshy!(2015) - HDRip [x264 - AAC3(5.1Ch)] - 850 MB
Description:
   Detective Byomkesh Bakshy!(2015) - HDRip
[x264 - AAC3(5.1Ch)] - 850 MB  
 






General
Format                                   : Matroska
Format version                           : Version 2
File size                                : 849 MiB
Duration                                 : 2 h 39 min

Video
ID                                       : 1
Format                                   : AVC
Format/Info                              : Advanced Video Codec
Format profile                           : [email protected]
Format settings                          : CABAC / 4 Ref Frames
Format settings, CABAC                   : Yes
Format settings, RefFrames               : 4 frames
Codec ID                                 : V_MPEG4/ISO/AVC
Duration                                 : 2 h 39 min
Bit rate                                 : 615 kb/s
Width                                    : 640 pixels
Height                                   : 272 pixels
Display aspect ratio                     : 2.35:1
Frame rate mode                          : Constant
Frame rate                               : 25.000 FPS
Color space                              : YUV
Chroma subsampling                       : 4:2:0
Bit depth                                : 8 bits
Scan type                                : Progressive
Bits/(Pixel*Frame)                       : 0.141
Stream size                              : 701 MiB (83%)

Audio
Format                                   : AAC LC SBR
Commercial name                          : HE-AAC
Format settings                          : Explicit
Codec ID                                 : A_AAC-2
Duration                                 : 2 h 39 min
Bit rate                                 : 128 kb/s
Channel(s)                               : 6 channels
Channel layout                           : C L R Ls Rs LFE
Sampling rate                            : 48.0 kHz
Stream size                              : 146 MiB (17%)



Thumbnail




Category:Movies > Bollywood
Lang:Hindi
Total Size:849.35 MB
Info Hash:30159f896befe22f40a26abdbb9da8a5793a16d3
Added By:CyberTron
Date Added:11-09-2018 17:48:11
Views:576
Hits:81

Download Torrent

Ratings:Not Yet Rated (Log in to rate it)

  


Tracker:
udp://tracker.trackerfix.com:80/announce


File List: 


Comments

No comments still posted

Powered by 10 Hamsters v2-svn -|- Page Generated In 1.472809 secs.
-|- RSS FEED
Theme By: Nikkbu