[Login] or [Signup]
Login
Username:
Password:
[Signup]
[Recover Account]


Poll


You must be logged in to view polls



Torrent Details For "Wrong No 2015 [Urdu] Untouched 1080p WEBHD x264 AAC - Hon3yHD"

Wrong No 2015 [Urdu] Untouched 1080p WEBHD x264 AAC - Hon3yHD

Download this torrent | Magnet Download
Health:
Seeds: 0
Leechers: 3
Completed: 50 
Last Checked: 14-10-2018 22:56:05
External Torrent
Update Stats
Download Magnet


Poster


iMDB
Imdb Picture Title: Wrong No.
Year: 2015
Runtime: 133 minutes
Votes: 1207
Rating: 7.0/10
Language: Urdu
Country: Pakistan
All Genres: Comedy, Romance
Plot Outline: A story of a middle class guy, passionate about becoming an actor and prove his worthiness to his family. Ditching a job interview as a favor from a father to his son, the story leads to new endeavors.
Director: Yasir Nawaz

Produced By: Yasir Nawaz,Nida Yasir,Hassan Zia,
Plot:

Wrong No. tells the story of Sallu (Danish Taimoor) who has passed his intermediate examinations recently and now he wants to be a movie star instead of joining his father, Haji Saab's (Javed Sheikh) business, who is a butcher. Meanwhile another world exists in parallel where Haya (Janita Aslam) is an employee in a Nawab's company. Nawab's grandson looks exactly like Sallu (Danish Taimoor).

- Written by Bilal Sulehri

A story of a middle class guy, passionate about becoming an actor and prove his worthiness to his family. Ditching a job interview as a favor from a father to his son, the story leads to new endeavors.

- Written by Sammy Sam
Cast:
Javed Sheikh as Haji Abba
Danish Taimoor as Salman (Sallu) / Shehryar
Janita Asma as Haya
Nayyar Ejaz as Gullu Butt
Qavi Khan as Nawab
Shafqat Cheema as Shera
Sohai Ali Abro as Laila
Nadeem Jafri as Pappi
Danish Nawaz as Bali
Ismail Tara as Saleem


Watch-Free-HD     Download

Details
Name:Wrong No 2015 [Urdu] Untouched 1080p WEBHD x264 AAC - Hon3yHD
Description:

Wrong No 2015 [Urdu] Untouched 1080p WEBHD x264 AAC - Hon3yHD


Format                                   : MPEG-4
Format profile                           : Base Media
Codec ID                                 : isom (isom/iso2/avc1/mp41)
File size                                : 1.98 GiB
Duration                                 : 2 h 7 min
Overall bit rate                         : 2 226 kb/s


Video
ID                                       : 1
Format                                   : AVC
Format/Info                              : Advanced Video Codec
Format profile                           : [email protected]
Format settings, CABAC                   : Yes
Format settings, ReFrames                : 3 frames
Codec ID                                 : avc1
Codec ID/Info                            : Advanced Video Coding
Duration                                 : 2 h 7 min
Bit rate                                 : 2 094 kb/s
Width                                    : 1 920 pixels
Height                                   : 1 080 pixels
Display aspect ratio                     : 16:9
Frame rate mode                          : Variable
Frame rate                               : 23.976 FPS
Minimum frame rate                       : 23.974 FPS
Maximum frame rate                       : 90 000.000 FPS
Color space                              : YUV
Chroma subsampling                       : 4:2:0
Bit depth                                : 8 bits
Scan type                                : Progressive
Bits/(Pixel*Frame)                       : 0.042
Stream size                              : 1.87 GiB (94%)
Color range                              : Limited
Color primaries                          : BT.709
Transfer characteristics                 : BT.709
Matrix coefficients                      : BT.709

Audio
ID                                       : 2
Format                                   : AAC
Format/Info                              : Advanced Audio Codec
Format profile                           : LC
Codec ID                                 : 40
Duration                                 : 2 h 7 min
Bit rate mode                            : Constant
Bit rate                                 : 126 kb/s
Channel(s)                               : 2 channels
Channel positions                        : Front: L R
Sampling rate                            : 44.1 kHz
Frame rate                               : 43.066 FPS (1024 spf)
Compression mode                         : Lossy
Stream size                              : 115 MiB (6%)
Default                                  : Yes
Alternate group                          : 1


                         
Category:Movies > Pakistani
Lang:Urdu
Total Size:1.98 GB
Info Hash:bcf9705cc04f5ed4c36b9dfffdeb562fefc70cfe
Added By:Hon3y
Date Added:26-04-2017 12:08:43
Views:858
Hits:215

Download Torrent

Ratings:Not Yet Rated (Log in to rate it)


Tracker:
udp://tracker.coppersurfer.tk:6969/announce


File List: 


Comments

No comments still posted

Powered by 10 Hamsters v2-svn -|- Page Generated In 0.010276 secs.
-|- RSS FEED
Theme By: Nikkbu